New version QSystem 21.0 is available!

twitter twitter twitter

Функциональность QSystem
× Электронная система управления очередью QSystem

Расскажите нам, и нашим пользователям о QSystem. Задайте вопрос о её возможностях. Обсуждайте сильные и слабые стороны СУО QSystem.

Видео на табло

  • vov-vov
  • vov-vov аватар Автор темы
  • Не в сети
  • Осваиваюсь на форуме
  • Осваиваюсь на форуме
Больше
6 года 2 нед. назад #1164 от vov-vov
vov-vov создал эту тему: Видео на табло
Подскажите пожалуйста в каком формате и с каким разрешением должен быть видеофайл чтобы он отображался на табло?

Пожалуйста Войти или Регистрация, чтобы присоединиться к беседе.

Больше
6 года 2 нед. назад #1165 от Evgenic
Evgenic ответил в теме Видео на табло

В очереди все первые. Каждый в своё время.
Спасибо сказали: vov-vov

Пожалуйста Войти или Регистрация, чтобы присоединиться к беседе.

  • vov-vov
  • vov-vov аватар Автор темы
  • Не в сети
  • Осваиваюсь на форуме
  • Осваиваюсь на форуме
Больше
6 года 2 нед. назад #1168 от vov-vov
vov-vov ответил в теме Видео на табло
Кодировал и H.264/AVC и в FLV. Не воспроизводится на табло.
MediaInfo исходника:
Format : MPEG-PS
File size : 30.0 MiB
Duration : 30s 96ms
Overall bit rate mode : Variable
Overall bit rate : 8 357 Kbps

Video
ID : 224 (0xE0)
Format : MPEG Video
Commercial name : HDV 720p
Format version : Version 2
Format profile : Main@High 1440
Format settings, BVOP : Yes
Format settings, Matrix : Default
Format settings, GOP : M=3, N=12
Duration : 30s 40ms
Bit rate mode : Variable
Bit rate : 7 807 Kbps
Maximum bit rate : 18.5 Mbps
Width : 1 280 pixels
Height : 720 pixels
Display aspect ratio : 16:9
Frame rate : 25.000 fps
Standard : PAL
Color space : YUV
Chroma subsampling : 4:2:0
Bit depth : 8 bits
Scan type : Progressive
Compression mode : Lossy
Bits/(Pixel*Frame) : 0.339
Time code of first frame : 00:00:00:00
Time code source : Group of pictures header
GOP, Open/Closed : Open
Stream size : 28.0 MiB (93%)
Color primaries : BT.709
Transfer characteristics : BT.709
Matrix coefficients : BT.709
GOP, Open/Closed of first f : Closed

Audio
ID : 192 (0xC0)
Format : MPEG Audio
Format version : Version 1
Format profile : Layer 2
Duration : 30s 96ms
Bit rate mode : Constant
Bit rate : 384 Kbps
Channel(s) : 2 channels
Sampling rate : 48.0 KHz
Compression mode : Lossy
Stream size : 1.38 MiB (5%)

Чем и во что перекодировать?

Пожалуйста Войти или Регистрация, чтобы присоединиться к беседе.

Больше
6 года 2 нед. назад #1169 от Evgenic
Evgenic ответил в теме Видео на табло
Чем перекодировать не подскажу. Редко пользуюсь, все в гугле ищется.

А для теста вот скачайте симпсонов от сюда www.h264info.com/clips.html Точно работают.

В очереди все первые. Каждый в своё время.

Пожалуйста Войти или Регистрация, чтобы присоединиться к беседе.

  • vov-vov
  • vov-vov аватар Автор темы
  • Не в сети
  • Осваиваюсь на форуме
  • Осваиваюсь на форуме
Больше
6 года 2 нед. назад #1170 от vov-vov
vov-vov ответил в теме Видео на табло
спасибо, попробую.

Пожалуйста Войти или Регистрация, чтобы присоединиться к беседе.

  • vov-vov
  • vov-vov аватар Автор темы
  • Не в сети
  • Осваиваюсь на форуме
  • Осваиваюсь на форуме
Больше
6 года 2 нед. назад #1171 от vov-vov
vov-vov ответил в теме Видео на табло
скачал по ссылке вот этот:
The Simpsons Movie – 1080p Trailer
Download Link: simpsons_movie_1080p_trailer.zip (120 MB)
Video Type: 1920×800 (1080p), 23.967 FPS, CE-High profile (PS3 and Xbox 360 compatible)
Audio Type: AAC LC Stereo
вообще табло не запустилось. Что делать с этим видео, ума не приложу.

Пожалуйста Войти или Регистрация, чтобы присоединиться к беседе.

Больше
6 года 2 нед. назад - 6 года 2 нед. назад #1172 от Evgenic
Evgenic ответил в теме Видео на табло
у вас версия QSystem какая? ОСь какая? Скайте симпсонов 70мб для эксперимента.

В очереди все первые. Каждый в своё время.
Последнее редактирование: 6 года 2 нед. назад от Evgenic.

Пожалуйста Войти или Регистрация, чтобы присоединиться к беседе.

  • vov-vov
  • vov-vov аватар Автор темы
  • Не в сети
  • Осваиваюсь на форуме
  • Осваиваюсь на форуме
Больше
6 года 2 нед. назад #1173 от vov-vov
vov-vov ответил в теме Видео на табло
QSystem 1.3.7,
Win7 корпоративная 64х, 4 Гб памяти
симпсонов 70мб скачаю, попробую, отпишусь.

Пожалуйста Войти или Регистрация, чтобы присоединиться к беседе.

  • vov-vov
  • vov-vov аватар Автор темы
  • Не в сети
  • Осваиваюсь на форуме
  • Осваиваюсь на форуме
Больше
6 года 2 нед. назад #1174 от vov-vov
vov-vov ответил в теме Видео на табло
симпсонов на 70 Мб тоже не показывает, и табло не запускается

Пожалуйста Войти или Регистрация, чтобы присоединиться к беседе.

Больше
6 года 2 нед. назад #1175 от Evgenic
Evgenic ответил в теме Видео на табло
что в логах?

В очереди все первые. Каждый в своё время.

Пожалуйста Войти или Регистрация, чтобы присоединиться к беседе.

Время создания страницы: 0.150 секунд
Работаем с QSystem